<?xml version="1.0" standalone="no"?>
<!DOCTYPE svg PUBLIC "-//W3C//DTD SVG 1.1//EN" "http://www.w3.org/Graphics/SVG/1.1/DTD/svg11.dtd" >
<svg xmlns="http://www.w3.org/2000/svg" xmlns:xlink="http://www.w3.org/1999/xlink" version="1.1">
<metadata>
Created by FontForge 20161003 at Wed Jun  5 05:59:30 2019
 By www-data
Copyright (c) 2016, prasanta.kundu
</metadata>
<defs>
<font id="WorkApps" horiz-adv-x="1024" >
  <font-face 
    font-family="WorkApps"
    font-weight="400"
    font-stretch="normal"
    units-per-em="1024"
    panose-1="2 0 5 3 0 0 0 0 0 0"
    ascent="832"
    descent="-192"
    bbox="-10 -205 1033 840"
    underline-thickness="0"
    underline-position="-64"
    unicode-range="U+00A6-00FF"
  />
<missing-glyph horiz-adv-x="374" 
d="M34 0v682h272v-682h-272zM68 34h204v614h-204v-614z" />
    <glyph glyph-name=".notdef" horiz-adv-x="374" 
d="M34 0v682h272v-682h-272zM68 34h204v614h-204v-614z" />
    <glyph glyph-name=".null" horiz-adv-x="0" 
 />
    <glyph glyph-name="nonmarkingreturn" horiz-adv-x="341" 
 />
    <glyph glyph-name="brokenbar" unicode="&#xa6;" 
d="M902 -51q-144 -77 -320 -77q-130 0 -233.5 55.5t-162 158t-58.5 234.5q0 131 62 234.5t166.5 158.5t232.5 55q183 0 301 -109l-84 -83q-86 96 -230 96q-95 0 -174 -45t-125.5 -126t-46.5 -181q0 -155 97.5 -253.5t254.5 -98.5q109 0 212 51v256h-192v96h294v-422h6z" />
    <glyph glyph-name="section" unicode="&#xa7;" 
d="M448 659.5q0 26.5 18.5 45t45.5 18.5t45.5 -18.5t18.5 -45t-18.5 -45.5t-45.5 -19t-45.5 19t-18.5 45.5zM960 576q29 0 46.5 -17.5t17.5 -46.5v-640q0 -28 -19.5 -46t-44.5 -18h-896q-28 0 -46 19.5t-18 44.5v640q0 29 17.5 46.5t46.5 17.5h288v96q0 67 46.5 113.5
t113.5 46.5t113.5 -46.5t46.5 -113.5v-96h288zM986 -128v640q0 16 -17 24q-5 1 -9 2h-288h-38v38v96q0 48 -37 85t-85 37t-85 -37t-37 -85v-96v-38h-38h-288q-10 0 -18 -8t-8 -18v-640q0 -16 17 -24q5 -1 9 -2h896q16 0 24 17q1 5 2 9zM333 179q-45 0 -77 53.5t-32 106.5
q0 51 32.5 80t82.5 29q45 0 77 -28t32 -74q0 -57 -35 -112t-80 -55zM339 410q-10 0 -20.5 -2.5t-24 -9t-20.5 -21.5t-5 -38q0 -43 23 -85.5t47 -42.5q25 0 51 43t26 85q0 23 -9 38t-23 21.5t-24.5 9t-20.5 2.5zM781 166q19 -12 46.5 -26t41 -21t29.5 -22t23 -33.5t11 -50
t2 -77.5h-358h-128h-358q0 44 4.5 74.5t11.5 49t23.5 33t30 22.5t41.5 23t49 28q28 -38 83 -38q45 0 83 38q17 -11 33 -20t38 -19t25 -12q3 2 25 12t38 19t33 20q29 -38 83 -38q51 0 90 38zM128 -26h320h45v109q-7 7 -32 19l-1 1h-1l-1 1h-1l-1 1h-1l-1 1h-1l-1 1h-1l-1 1
h-1l-1 1h-1l-1 1h-1l-1 1h-1l-1 1h-1l-1 1h-1l-1 1h-1l-1 1h-1l-1 1h-1l-1 1h-1l-1 1h-1l-1 1h-1l-1 1h-1l-1 1l-2 1q-42 -32 -89 -32t-90 32q-6 -4 -15.5 -10t-16.5 -10l-8 -4q-23 -13 -33 -19.5t-21 -20.5t-15 -33t-6 -51zM576 -26h320q-2 32 -6 51t-15 33t-21 20.5
t-33 19.5l-8 4l-1 1h-1l-1 1h-1l-1 1h-1l-1 1h-1l-1 1h-1l-1 1h-1l-1 1h-1l-1 1h-1l-1 1h-1l-1 1h-1l-1 1h-1l-1 1h-1l-1 1h-1l-1 1h-1l-1 1h-1l-1 1h-1l-1 1h-1l-1 1h-1l-1 1l-2 1q-42 -32 -89 -32t-90 32q-6 -4 -15.5 -10t-16 -9.5t-16 -10t-16.5 -9.5v-109h45zM691 179
q-44 0 -77 53.5t-38 113.5q0 51 32.5 79.5t82.5 28.5t82.5 -28.5t32.5 -79.5q0 -57 -34.5 -112t-80.5 -55zM698 410q-10 0 -20.5 -2.5t-24 -9t-21 -21.5t-5.5 -38q0 -43 23.5 -85.5t47.5 -42.5t50 43t26 85q0 23 -8.5 38t-22.5 21.5t-24.5 9t-20.5 2.5z" />
    <glyph glyph-name="dieresis" unicode="&#xa8;" 
d="M512 179q-45 0 -77 53.5t-32 106.5q0 51 32.5 80t82.5 29q45 0 77 -28t32 -74q0 -57 -34.5 -112t-80.5 -55zM518 410q-10 0 -20 -2.5t-23.5 -9t-21 -21.5t-5.5 -38q0 -43 23 -85.5t47 -42.5q25 0 51 43t26 85q0 23 -8.5 38t-22.5 21.5t-25 9t-21 2.5zM602 166
q19 -12 46.5 -26t40.5 -21t29.5 -22t23 -33.5t11 -50t2.5 -77.5h-493q0 44 5.5 75t13 49.5t25 34t31 23t43 22.5t49.5 26q29 -38 83 -38q38 0 90 38zM307 -26h416q-2 32 -6 51t-15 33t-21 20.5t-33 19.5q-5 3 -8 4l-1 1h-1l-1 1h-1l-1 1h-1l-1 1h-1l-1 1h-1l-1 1h-1l-1 1h-1
l-1 1l-1 1h-1l-1 1h-1l-1 1h-1l-1 1h-1l-1 1h-1l-1 1h-1l-1 1h-1l-1 1h-1l-1 1h-1l-1 1h-1l-1 1h-1l-1 1q-43 -32 -90 -32t-90 32q-6 -4 -15.5 -10t-16.5 -10q-2 -1 -7 -4q-24 -13 -34 -19.5t-20.5 -20.5t-15 -33t-6.5 -51zM448 659.5q0 26.5 18.5 45t45.5 18.5t45.5 -18.5
t18.5 -45t-18.5 -45.5t-45.5 -19t-45.5 19t-18.5 45.5zM960 576q29 0 46.5 -17.5t17.5 -46.5v-640q0 -28 -19.5 -46t-44.5 -18h-896q-28 0 -46 19.5t-18 44.5v640q0 29 17.5 46.5t46.5 17.5h288v96q0 67 46.5 113.5t113.5 46.5t113.5 -46.5t46.5 -113.5v-96h288zM986 -128
v640q0 16 -17 24q-5 1 -9 2h-288h-38v38v96q0 48 -37 85t-85 37t-85 -37t-37 -85v-96v-38h-38h-288q-10 0 -18 -8t-8 -18v-640q0 -16 17 -24q5 -1 9 -2h896q16 0 24 17q1 5 2 9z" />
    <glyph glyph-name="copyright" unicode="&#xa9;" 
d="M0 832h134l884 -838v-71v-51l-256 243q-5 -58 -47.5 -99.5t-100.5 -41.5h-467q-62 0 -104.5 42.5t-42.5 105.5v403q0 62 42.5 104.5t104.5 42.5h19zM691 179l-441 416h-103q-29 0 -49.5 -20.5t-20.5 -49.5v-410q0 -29 20.5 -49.5t49.5 -20.5h474q29 0 49.5 20.5
t20.5 49.5v64zM768 512l256 256v-595l-77 70v339l-173 -172l-83 76v39q0 29 -20.5 49.5t-49.5 20.5h-45l-83 77h128q62 0 104.5 -42.5t42.5 -104.5v-13z" />
    <glyph glyph-name="ordfeminine" unicode="&#xaa;" 
d="M428.5 -192q-43.5 0 -77 29.5t-37.5 72.5h230q-5 -43 -38.5 -72.5t-77 -29.5zM768 435q106 0 180 -75.5t70 -180.5q0 -105 -75.5 -180.5t-180.5 -75.5q-71 0 -128 39h-634v51l102 102v275q0 108 62.5 190.5t161.5 117.5v38q0 38 29 67t67 29t68 -28.5t35 -67.5v-38
q90 -24 149.5 -95t74.5 -168h19zM160 64l-26 -26h423q-45 54 -45 141q0 80 43.5 144.5t116.5 98.5q-10 74 -56 130t-117 75l-57 13v58v38q0 5 -7.5 12t-12 7t-12 -7t-7.5 -12v-38v-58l-45 -13q-78 -29 -125 -92.5t-47 -144.5v-268v-32zM768 -13q78 0 135 56t57 136
q0 82 -55 137t-137 55t-137 -55t-55 -136.5t55 -137t137 -55.5zM736 147l128 128l32 -32l-160 -153l-96 96l32 25z" />
    <glyph glyph-name="guillemotleft" unicode="&#xab;" 
d="M428.5 -192q-43.5 0 -77 29.5t-37.5 72.5h230q-5 -43 -38.5 -72.5t-77 -29.5zM768 435q106 0 180 -75.5t70 -180.5q0 -105 -75.5 -180.5t-180.5 -75.5q-71 0 -128 39h-634v51l102 102v275q0 108 62.5 190.5t161.5 117.5v38q0 38 29 67t67 29t68 -28.5t35 -67.5v-38
q90 -24 149.5 -95t74.5 -168h19zM160 64l-26 -26h423q-45 54 -45 141q0 80 43.5 144.5t116.5 98.5q-10 74 -56 130t-117 75l-57 13v58v38q0 5 -7.5 12t-12 7t-12 -7t-7.5 -12v-38v-58l-45 -13q-78 -29 -125 -92.5t-47 -144.5v-268v-32zM768 -13q78 0 135 56t57 136
q0 82 -55 137t-137 55t-137 -55t-55 -136.5t55 -137t137 -55.5zM672 179q0 40 28 68t68 28t68 -28t28 -68t-28 -68t-68 -28t-68 28t-28 68z" />
    <glyph glyph-name="logicalnot" unicode="&#xac;" 
d="M627 621h-480q-29 0 -49.5 -22t-20.5 -55v-442q0 -29 21 -52.5t49 -23.5h480q29 0 50 21.5t21 54.5v442q0 29 -21.5 53t-49.5 24zM627 704q63 0 104.5 -46.5t36.5 -113.5v-448q0 -67 -42.5 -113.5t-104.5 -46.5h-474q-63 0 -105 47.5t-42 118.5v442q0 67 42.5 113.5
t104.5 46.5h480zM704 448l320 320v-896l-320 320v109l243 -243v524l-243 -243v109z" />
    <glyph glyph-name="uni00AD" unicode="&#xad;" 
d="M973 768q-11 0 -22.5 -5t-16.5 -14l-582 -749l-269 230q-13 13 -32 13q-11 0 -22.5 -5t-15.5 -14q-15 -14 -13.5 -37.5t19.5 -32.5l307 -263q10 -19 32 -19h7q19 0 38 19l615 787q9 20 5 41.5t-18 35.5q-4 2 -9 5l-7.5 4.5t-7 2.5t-8.5 1z" />
    <glyph glyph-name="registered" unicode="&#xae;" 
d="M616 838q73 0 125 -52t52 -125v-611q0 -98 -69.5 -167t-166.5 -69q-50 0 -105 18.5t-87 50.5q-70 69 -70 167v611q0 16 11.5 27t27 11t27 -11t11.5 -27v-611q0 -66 46 -113q21 -21 62 -34t77 -13q66 0 112.5 47t46.5 113v611q0 42 -29.5 71.5t-71 29.5t-71 -29.5
t-29.5 -71.5v-569q0 -12 9 -21t22 -9t23 9q8 9 8 21v306q0 15 11.5 26.5t27 11.5t27 -11.5t11.5 -26.5v-306q0 -44 -31.5 -75.5t-75.5 -31.5t-76 31.5t-32 75.5v6l-1 563q0 73 52 125t126 52z" />
    <glyph glyph-name="macron" unicode="&#xaf;" 
d="M288 243v77h448v-77h-448zM288 51v77h448v-77h-448zM672 832l256 -256v-768h-832v1024h576zM672 723v-147h147zM173 -115h678v614h-179h-77v77v179h-422v-870z" />
    <glyph glyph-name="degree" unicode="&#xb0;" 
d="M916 750q45 0 76.5 -32t31.5 -77v-272h-52v272q0 24 -16 40.5t-40 16.5h-94v-57q0 -15 -10.5 -26t-25.5 -11t-25.5 11t-10.5 26v57h-203v-57q0 -15 -10.5 -26t-25.5 -11t-25.5 11t-10.5 26v57h-201v-52q0 -15 -10.5 -25.5t-25.5 -10.5t-25.5 10.5t-10.5 25.5v52h-94
q-24 0 -40 -16.5t-16 -40.5v-724q0 -23 16.5 -40t39.5 -17h288v-52h-288q-45 0 -76.5 32t-31.5 77v724q0 45 31.5 77t76.5 32h94v46q0 15 10.5 25.5t25.5 10.5t25.5 -10.5t10.5 -25.5v-46h201v40q0 15 10.5 25.5t25.5 10.5t25.5 -10.5t10.5 -25.5v-40h203v40q0 15 10.5 25.5
t25.5 10.5t25.5 -10.5t10.5 -25.5v-40h94zM219 405v98h131v-98h-131zM219 215v98h131v-98h-131zM219 26v98h131v-98h-131zM447 405v98h130v-98h-130zM674 405v98h131v-98h-131zM769 41l87 115l51 -38l-133 -177l-143 158l48 43zM768 320q106 0 181 -75t75 -181t-75 -181
t-181 -75t-181 75t-75 181t75 181t181 75zM768 -128q79 0 135.5 56.5t56.5 135.5t-56.5 135.5t-135.5 56.5t-135.5 -56.5t-56.5 -135.5t56.5 -135.5t135.5 -56.5z" />
    <glyph glyph-name="plusminus" unicode="&#xb1;" 
d="M640 768h-256q-134 0 -227 -93t-93 -227t93 -227t227 -93h134h20l19 -13l211 -173v173v39l32 19q73 44 116.5 117t43.5 158q0 134 -93 227t-227 93zM640 832q158 0 271 -113t113 -271q0 -105 -52.5 -194.5t-139.5 -138.5v-307l-314 256h-134q-158 0 -271 113t-113 271
t113 271t271 113h256zM288 410v76h448v-76h-448z" />
    <glyph glyph-name="uni00B2" unicode="&#xb2;" 
d="M960 691h-896v-192h896v192zM1024 755v-320h-1024v320h1024zM864 435h-704v-512h704v512zM928 499v-640h-832v640h832zM672 211h-320q-14 0 -23 -9t-9 -23t9 -23t23 -9h320q14 0 23 9t9 23t-9 23t-23 9zM672 275q38 0 67 -29t29 -67t-29 -67t-67 -29h-320q-38 0 -67 29
t-29 67t29 67t67 29h320z" />
    <glyph glyph-name="uni00B3" unicode="&#xb3;" 
d="M454 122q-9 -7 -28 -16q-20 -10 -29 -16q-24 -13 -34 -18.5t-27.5 -16.5t-24 -18t-18 -20t-16 -25.5t-10 -30.5t-8 -39.5t-3.5 -49.5h704q-2 44 -8.5 75t-15 51.5t-27 37.5t-35.5 27.5t-48 26.5q-32 10 -64 32q-82 -52 -154 -52q-82 0 -154 52zM461 205q70 -71 147 -71
q83 0 147 64q28 -17 62.5 -34.5t55.5 -28t45.5 -25.5t38.5 -30t28.5 -39t22 -55t12 -75.5t4.5 -102.5h-832q0 56 4.5 99t12 73.5t22 55t28.5 40t38.5 32.5t45 28.5t55.5 31t63 37.5zM614.5 608q-13.5 0 -26 -1.5t-32.5 -8t-34 -18t-25 -34t-11 -53.5q0 -47 18.5 -96.5
t47 -82t56.5 -32.5t60 32t53 82t21 97q0 31 -10.5 53.5t-24.5 34t-34 18t-32.5 8t-26 1.5zM614.5 672q84.5 0 138 -47.5t53.5 -131.5q0 -59 -26 -122t-73 -108t-99 -45t-96 45t-67 108t-23 122q0 84 54 131.5t138.5 47.5zM346 493q0 -48 19 -96q-7 -7 -19 -7q-43 0 -79.5 38
t-55.5 90.5t-19 102.5q0 69 44 108t110 39q76 0 128 -51q-59 -34 -93.5 -93.5t-34.5 -130.5zM378 339q19 -38 38 -77q-45 -26 -90 -44q-32 -19 -44.5 -26.5t-37 -24.5t-37 -29.5t-27.5 -32t-26 -41.5h-154q0 63 7 106.5t17.5 68.5t33 45t42 30.5t57.5 30.5t67 39
q51 -51 115 -51q7 0 19 3q14 3 20 3z" />
    <glyph glyph-name="acute" unicode="&#xb4;" 
d="M1011 -109q15 -14 15 -34t-15 -30q-14 -14 -35 -14t-35 14l-320 320q-104 -83 -237 -83q-158 0 -271 113t-113 271t113 271t271 113t271 -113t113 -271q0 -127 -77 -237zM384 141q82 0 153 41.5t112.5 112.5t41.5 153t-41.5 153t-112.5 112.5t-153 41.5t-153 -41.5
t-112.5 -112.5t-41.5 -153t41.5 -153t112.5 -112.5t153 -41.5z" />
    <glyph glyph-name="mu" unicode="&#xb5;" 
d="M928 768q38 0 67 -29t29 -67v-576q0 -38 -29 -67t-67 -29h-685l-243 -192v358v32v474q0 38 29 67t67 29h832zM960 96v576q0 14 -9 23t-23 9h-832q-14 0 -23 -9t-9 -23v-474v-32v-224l141 109l19 13h19h685q14 0 23 9t9 23zM224 256v64h576v-64h-576zM224 448v64h576v-64
h-576z" />
    <glyph glyph-name="paragraph" unicode="&#xb6;" 
d="M973 467l-416 -416q-19 -19 -45 -19t-45 19l-416 416q-19 19 -19 45t19 45t45 19t45 -19l377 -371l378 364q20 20 45 20t45 -20q11 -13 8 -41.5t-21 -41.5z" />
    <glyph glyph-name="periodcentered" unicode="&#xb7;" 
d="M959 250h64v-320v-64h-64h-896h-64v64v320h64v-320h896v320zM511 122l-192 256h147v384h90v-384h147z" />
    <glyph glyph-name="cedilla" unicode="&#xb8;" 
d="M916 696h-808q-24 0 -40 -16.5t-16 -40.5v-719q0 -23 16 -40t40 -17h808q23 0 39.5 17t16.5 40v719q0 24 -16.5 40.5t-39.5 16.5zM916 748q45 0 76.5 -32t31.5 -77v-719q0 -45 -31.5 -76.5t-76.5 -31.5h-808q-45 0 -76.5 31.5t-31.5 76.5v719q0 45 31.5 77t76.5 32h808z
M274 645q0 -15 -10.5 -25.5t-25.5 -10.5t-25.5 10.5t-10.5 25.5v147q0 15 10.5 25.5t25.5 10.5t25.5 -10.5t10.5 -25.5v-147zM547 640q0 -15 -10.5 -25.5t-25.5 -10.5t-25.5 10.5t-10.5 25.5v147q0 15 10.5 25.5t25.5 10.5t25.5 -10.5t10.5 -25.5v-147zM822 640
q0 -15 -10.5 -25.5t-25.5 -10.5t-25.5 10.5t-10.5 25.5v147q0 15 10.5 25.5t25.5 10.5t25.5 -10.5t10.5 -25.5v-147zM219 356v97h130v-97h-130zM447 195v97h130v-97h-130zM674 34v97h131v-97h-131z" />
    <glyph glyph-name="uni00B9" unicode="&#xb9;" 
d="M915 692h-808q-24 0 -40 -16.5t-16 -39.5v-714q0 -23 16 -39.5t40 -16.5h808q23 0 39.5 16.5t16.5 39.5v714q0 23 -16.5 39.5t-39.5 16.5zM915 744q45 0 76.5 -31.5t31.5 -76.5v-714q0 -44 -31.5 -75.5t-76.5 -31.5h-808q-45 0 -76.5 31.5t-31.5 75.5v714q0 45 31.5 76.5
t76.5 31.5h808zM277 639q0 -15 -11 -25.5t-26 -10.5t-25.5 10.5t-10.5 25.5v150q0 15 10.5 25.5t25.5 10.5t26 -10.5t11 -25.5v-150zM554 634q0 -15 -11 -25.5t-26 -10.5t-25.5 10.5t-10.5 25.5v149q0 16 10.5 26.5t25.5 10.5t26 -10.5t11 -26.5v-149zM833 634
q0 -15 -11 -25.5t-26 -10.5t-25.5 10.5t-10.5 25.5v149q0 16 10.5 26.5t25.5 10.5t26 -11t11 -26v-149zM221 347v98h132v-98h-132z" />
    <glyph glyph-name="ordmasculine" unicode="&#xba;" 
d="M224 -192v64h576v-64h-576zM304 109v0v261v139v233q0 38 26 64t64 26h236q38 0 64 -26t26 -64v-233v-139v-261q0 -13 -10 -21l-180 -145q-8 -7 -18 -7t-18 7l-180 145q-10 8 -10 21zM656 130v240v116h-288v-116v-243l144 -117l144 117v3zM394 768q-11 0 -18.5 -7.5
t-7.5 -18.5v-192h288v192q0 11 -7.5 18.5t-18.5 7.5h-236z" />
    <glyph glyph-name="guillemotright" unicode="&#xbb;" 
d="M908 833q48 0 81.5 -33.5t33.5 -81.5v-787q0 -48 -33.5 -82t-81.5 -34h-243q-15 0 -23.5 9t-8.5 23.5t8.5 23t23.5 8.5h243q20 0 35.5 14.5t15.5 37.5v787q0 19 -17 35t-41 16h-787q-19 0 -35 -16t-16 -35v-250q0 -10 -9 -17.5t-23 -7.5t-23 8.5t-9 23.5v243
q0 48 33.5 81.5t81.5 33.5h794zM453 321q24 0 41 -17t17 -41v-396q0 -25 -18 -41.5t-46 -16.5h-390q-25 0 -41.5 18t-16.5 46v390q0 24 17 41t41 17h396zM447 -127v384h-384v-384h384z" />
    <glyph glyph-name="onequarter" unicode="&#xbc;" 
d="M551 768h-395v-896h704v671zM572 832l352 -256v-768h-832v1024h480zM245 243v77h512v-77h-512zM245 51v77h512v-77h-512zM508 512v288h64v-288h-64zM892 512h-384v64h384v-64z" />
    <glyph glyph-name="onehalf" unicode="&#xbd;" 
d="M288 51q-38 0 -67 -29t-29 -67t29 -67t67 -29t67 29t29 67t-29 67t-67 29zM288 115q68 0 114 -46.5t46 -113.5t-46 -113.5t-114 -46.5t-114 46.5t-46 113.5t46 113.5t114 46.5zM0 -77v64h186v-64h-186zM390 -77v64h634v-64h-634zM288 755q-38 0 -67 -29t-29 -67t29 -67
t67 -29t67 29t29 67t-29 67t-67 29zM288 819q68 0 114 -46.5t46 -113.5t-46 -113.5t-114 -46.5t-114 46.5t-46 113.5t46 113.5t114 46.5zM0 627v64h186v-64h-186zM390 627v64h634v-64h-634zM0 275v64h570v-64h-570zM774 275v64h250v-64h-250zM672 403q-38 0 -67 -29t-29 -67
t29 -67t67 -29t67 29t29 67t-29 67t-67 29zM672 467q68 0 114 -46.5t46 -113.5t-46 -113.5t-114 -46.5t-114 46.5t-46 113.5t46 113.5t114 46.5z" />
    <glyph glyph-name="threequarters" unicode="&#xbe;" 
d="M348 712q-57 0 -105 -12.5t-64 -23.5l-77 -31v-512l16 15q87 67 220 67q30 0 64.5 -7.5t57 -15.5t60 -23t53.5 -21q99 -46 159 -46q31 0 58.5 5t50 14.5t36.5 17t31 18.5t19 12q5 10 5 15v482q-90 -57 -225 -57q-75 0 -185 51q-102 52 -174 52zM92 819q24 0 38.5 -16.5
t7.5 -39.5v-26q28 16 82 31t118 15q50 0 102 -16.5t88.5 -37t82.5 -37t85 -16.5q132 0 200 51q4 3 13 10.5t16.5 11.5t16.5 4q20 0 33 -13.5t13 -32.5v-528q0 -41 -25 -66q-38 -34 -100.5 -60.5t-135.5 -26.5q-46 0 -100.5 16.5t-97.5 37t-100 37t-106 16.5q-117 0 -185 -51
v-230q0 -23 -16.5 -40t-39.5 -17v0q-20 0 -35.5 14.5t-15.5 36.5v6v911v5q0 20 17.5 35.5t43.5 15.5v0z" />
    <glyph glyph-name="questiondown" unicode="&#xbf;" 
d="M947 749q19 0 32 -12.5t13 -32.5v-525q0 -38 -26 -64q-105 -89 -236 -89q-55 0 -125.5 27t-143.5 54t-135 27q-110 0 -185 -51v-230q0 -24 -17 -41t-41 -17v0q-21 0 -36 14t-15 37v7v909v6q0 20 17 35.5t41 15.5v0q24 0 40.5 -16.5t16.5 -40.5v-26q90 45 199 45
q62 0 127.5 -27.5t124.5 -54.5t106 -27q123 0 198 51q26 26 45 26z" />
    <glyph glyph-name="Agrave" unicode="&#xc0;" 
d="M316 512zM688 768h-352v-224h352v224zM708 832q18 0 31 -13t13 -31v-264q0 -18 -13 -31t-31 -13h-392q-18 0 -31 13t-13 31v264q0 18 13 31t31 13h392zM544 516v-522h-64v522h64zM224 -32h-160v-96h160v96zM244 32q18 0 31 -13t13 -31v-136q0 -18 -13 -31t-31 -13h-200
q-18 0 -31 13t-13 31v136q0 18 13 31t31 13h200zM960 -32h-160v-96h160v96zM980 32q18 0 31 -13t13 -31v-136q0 -18 -13 -31t-31 -13h-200q-18 0 -31 13t-13 31v136q0 18 13 31t31 13h200zM850 338q26 0 44 -18t18 -43v-277h-63l-1 274h-674l1 -274h-63v277q0 25 18 43
t44 18h676zM612 -192h-200q-18 0 -31 13t-13 31v136q0 18 13 31t31 13h200q18 0 31 -13t13 -31v-136q0 -18 -13 -31t-31 -13z" />
    <glyph glyph-name="Aacute" unicode="&#xc1;" 
d="M980 31q18 0 31 -13t13 -31v-136q0 -18 -13 -31t-31 -13h-200q-18 0 -31 13t-13 31v136q0 18 13 31t31 13h69l-1 114h-304v-114h68q18 0 31 -13t13 -31v-136q0 -18 -13 -31t-31 -13h-200q-18 0 -31 13t-13 31v136q0 18 13 31t31 13h68v114h-306l1 -114h69q18 0 31 -13
t13 -31v-136q0 -18 -13 -31t-31 -13h-200q-18 0 -31 13t-13 31v136q0 18 13 31t31 13h68v116q0 26 18 44t44 18h306v81q-103 12 -171.5 88t-68.5 181q0 114 79 193t193 79q113 0 192.5 -81t79.5 -191q0 -105 -68.5 -181t-171.5 -88v-81h306q26 0 44 -18t18 -43v-117h68z
M336 430l48 -47l129 129l127 -127l48 47l-127 127l127 127l-48 47l-127 -127l-129 129l-48 -47l129 -129zM224 -129v96h-160v-96h160z" />
    <glyph glyph-name="Acircumflex" unicode="&#xc2;" 
d="M64 578q-29 0 -46.5 17.5t-17.5 46.5t17.5 46.5t46.5 17.5h896q29 0 46.5 -17.5t17.5 -46.5t-17.5 -46.5t-46.5 -17.5h-896zM960 386q29 0 46.5 -17.5t17.5 -46.5t-17.5 -46.5t-46.5 -17.5h-896q-29 0 -46.5 17.5t-17.5 46.5t17.5 46.5t46.5 17.5h896zM960 66
q29 0 46.5 -17.5t17.5 -46.5t-17.5 -46.5t-46.5 -17.5h-896q-29 0 -46.5 17.5t-17.5 46.5t17.5 46.5t46.5 17.5h896z" />
    <glyph glyph-name="Atilde" unicode="&#xc3;" 
d="M448 58v38q0 70 19 128q26 51 51 83q9 6 20.5 16t32 28.5t37.5 32.5q55 47 83 90q19 38 19 70q0 71 -57 128q-58 58 -135 58q-91 0 -134 -52q-54 -65 -70 -153l-128 13q19 143 102 217q86 77 224 77q154 0 237 -83q45 -45 67 -91t22 -101q0 -58 -32 -122
q-23 -47 -121 -134l-77 -77q-26 -39 -32 -64q-3 -8 -4.5 -23.5t-3.5 -40.5t-5 -45h-115v7zM442 -192v141h140v-141h-140z" />
    <glyph glyph-name="Adieresis" unicode="&#xc4;" 
d="M640 768h-256v-563v-64h-64h-41l233 -241l233 241h-41h-64v64v563zM704 832v-627h192l-384 -397l-384 397h192v627h384z" />
    <glyph glyph-name="Aring" unicode="&#xc5;" 
d="M960 382h-550v-128h550v128zM986 446q15 0 26.5 -13t11.5 -32v-166q0 -45 -38 -45h-596q-15 0 -26.5 13t-11.5 32v166q0 19 11.5 32t26.5 13h596zM211 446q19 0 32 -11.5t13 -26.5v-173q0 -19 -11.5 -32t-26.5 -13h-173q-19 0 -32 12t-13 27v172q0 19 13 32t32 13h166z
M960 766h-544v-128h544v128zM986 830q15 0 26.5 -13t11.5 -32v-166q0 -19 -13 -32t-32 -13h-589q-14 0 -26 12.5t-12 26.5v172q0 19 13 32t32 13h589zM211 830q19 0 32 -13t13 -32v-166q0 -19 -11.5 -32t-26.5 -13h-173q-19 0 -32 12t-13 27v172q0 19 13 32t32 13h166z
M960 -2h-550v-128h550v128zM986 62q15 0 26.5 -13t11.5 -32v-166q0 -45 -38 -45h-596q-15 0 -26.5 13t-11.5 32v166q0 19 11.5 32t26.5 13h596zM211 62q19 0 32 -11.5t13 -26.5v-173q0 -19 -11.5 -32t-26.5 -13h-173q-19 0 -32 12t-13 27v172q0 19 13 32t32 13h166z" />
    <glyph glyph-name="AE" unicode="&#xc6;" 
d="M512 832q138 0 256 -69t187 -187t69 -256t-69 -256t-187 -187t-256 -69t-256 69t-187 187t-69 256t69 256t187 187t256 69zM512 -128q187 0 317.5 130.5t130.5 317.5t-130.5 317.5t-317.5 130.5t-317.5 -130.5t-130.5 -317.5t130.5 -317.5t317.5 -130.5zM192 320
q0 27 18.5 45.5t45.5 18.5t45.5 -18.5t18.5 -45.5t-18.5 -45.5t-45.5 -18.5t-45.5 18.5t-18.5 45.5zM448 320q0 27 18.5 45.5t45.5 18.5t45.5 -18.5t18.5 -45.5t-18.5 -45.5t-45.5 -18.5t-45.5 18.5t-18.5 45.5zM704 320q0 27 18.5 45.5t45.5 18.5t45.5 -18.5t18.5 -45.5
t-18.5 -45.5t-45.5 -18.5t-45.5 18.5t-18.5 45.5z" />
    <glyph glyph-name="Ccedilla" unicode="&#xc7;" 
d="M335 217q-35 -21 -94 -51q-26 -14 -38 -20.5t-31.5 -18t-28.5 -20t-22.5 -22t-19 -27t-14 -32.5t-11.5 -41t-6.5 -50t-4.5 -63h440h7h6h441q-1 39 -4 69t-10 55.5t-12.5 43t-19.5 34t-23 26t-30.5 23t-34.5 21t-42 22.5q-59 30 -94 51q-87 -61 -177 -61q-89 0 -177 61z
M685 294q36 -23 78.5 -46t69.5 -36t57.5 -32t48.5 -37.5t36 -48t27.5 -67.5t15.5 -92.5t6 -126.5h-7h-499h-6h-7h-499h-6q0 72 6 126.5t15.5 92.5t27.5 67.5t36 48t48.5 37.5t57.5 32t69.5 36t78.5 46q88 -74 173 -74t173 74zM521 768q-16 0 -32.5 -2t-42 -11t-44 -23.5
t-32.5 -43.5t-14 -68q0 -56 22 -117.5t59.5 -104t75 -42.5t78.5 41t68 103.5t27 119.5q0 39 -14 68t-33 43.5t-44 23.5t-41.5 11t-32.5 2zM521 832q99 0 164 -56t65 -156q0 -69 -32.5 -145t-88.5 -129.5t-116 -53.5t-112.5 53.5t-80.5 129t-28 145.5q0 100 65 156t164 56z
" />
    <glyph glyph-name="Egrave" unicode="&#xc8;" 
d="M838 781q78 -63 127.5 -155.5t58.5 -196.5h-64q-10 96 -52.5 175t-113.5 132zM186 781l44 -45q-71 -53 -113.5 -132t-52.5 -175h-64q9 104 58.5 196.5t127.5 155.5zM838 115l103 -102v-51h-851v51l102 102v275q0 108 62.5 190.5t161.5 117.5v38q0 38 29 67t67 29t67 -29
t29 -67v-38q102 -30 166 -114t64 -194v-275zM198 26l634 6l-38 38l-20 20v25v275q0 91 -53.5 158.5t-144.5 91.5l-32 6v90q0 14 -9 23t-23 9t-23 -9t-9 -23v-90l-26 -6q-90 -19 -144 -88t-54 -162v-275v-25l-19 -26l-39 -38v0zM403 -90h231q-5 -43 -38.5 -72.5t-77 -29.5
t-77 29.5t-38.5 72.5z" />
    <glyph glyph-name="Eacute" unicode="&#xc9;" 
d="M512 740l-233 -241h41h64v-64v-563h256v563v64h64h41zM512 832l384 -397h-192v-627h-384v627h-192z" />
    <glyph glyph-name="Ecircumflex" unicode="&#xca;" 
d="M512 710l-442 -819h884zM512 787q21 0 38 -25l468 -864q14 -24 -1 -47.5t-44 -23.5h-922q-29 0 -44 23.5t-1 47.5l461 864q17 25 45 25zM454 -19v121h122v-121h-122zM454 154v230h116v-230h-116z" />
    <glyph glyph-name="Edieresis" unicode="&#xcb;" 
d="M896 755v-64h-32q37 -97 9.5 -193t-105.5 -159q-23 -23 -51 -32q8 -2 51 -32q77 -62 103.5 -159t-7.5 -193h32v-64h64v-64h-896v64h64v64h32q-37 97 -9.5 193t105.5 159q23 23 51 32q-8 2 -51 32q-77 62 -103.5 159t7.5 193h-32v64h-64v64h896v-64h-64zM800 678l-13 13
h-576l-6 -13q-28 -77 -6.5 -156t83.5 -132q41 -30 83 -38v-83q-40 -7 -83 -39q-67 -48 -89 -130t12 -158l6 -12h135q-10 40 0.5 80t43.5 67q40 30 77 38v263q-59 9 -102 44q-38 28 -58 77h391q-27 -55 -58 -77q-43 -35 -102 -44v-263q47 -9 76 -38t42 -69t3 -78h135l6 12
q28 77 6.5 156t-83.5 132q-43 32 -83 39v83q42 8 83 38q67 48 89 130t-12 158z" />
    <glyph glyph-name="Igrave" unicode="&#xcc;" 
d="M1024 397v-154h-435v-435h-154v435h-435v154h435v435h154v-435h435z" />
    <glyph glyph-name="Iacute" unicode="&#xcd;" 
d="M856 448q30 0 51 -20t21 -48v-504q0 -28 -21 -48t-51 -20h-688q-30 0 -51 20t-21 48v504q0 28 21 48t51 20h88v138q0 102 72 174t174 72h20q102 0 174 -72t72 -174v-138h88zM320 586v-138h384v138q0 75 -53.5 128.5t-128.5 53.5h-20q-75 0 -128.5 -53.5t-53.5 -128.5z
M864 -124v504q0 4 -8 4h-88h-512h-88q-8 0 -8 -4v-504q0 -4 8 -4h688q8 0 8 4zM512 256q13 0 22.5 -9.5t9.5 -22.5v-192q0 -13 -9.5 -22.5t-22.5 -9.5t-22.5 9.5t-9.5 22.5v192q0 13 9.5 22.5t22.5 9.5z" />
    <glyph glyph-name="Icircumflex" unicode="&#xce;" 
d="M416 749q-154 -34 -253 -159t-99 -283q0 -187 130 -317.5t318 -130.5q78 0 134 19q-113 197 -162.5 287.5t-58.5 110.5t-9 31v442zM480 819v-512q0 -3 65.5 -118t130.5 -229l66 -114q-112 -51 -230 -51q-104 0 -198.5 40.5t-163.5 109.5t-109.5 163.5t-40.5 198.5
q0 205 138.5 351.5t341.5 160.5zM608 749v-339h339q-24 125 -116.5 218t-222.5 121zM544 819q192 -10 331 -149t149 -331h-480v480zM794 -122l-224 397h454q-10 -123 -71.5 -228.5t-158.5 -168.5z" />
    <glyph glyph-name="Idieresis" unicode="&#xcf;" 
d="M512 730l-96 -276l-13 -44h-45h-294l237 -180l38 -25l-13 -45l-89 -294l237 179l38 32l38 -32l224 -173l-89 288l-13 45l38 25l237 180h-294h-45l-13 44zM518 819q34 0 52 -57l89 -295h295h6q49 0 64 -38q6 -20 -2 -37.5t-19 -25.5l-11 -8l-237 -179l83 -294q3 -6 6 -15
t1 -29.5t-19 -32.5q-13 -13 -32 -13q-12 0 -23 4.5t-17 9.5l-5 5l-237 180l-237 -180q-25 -19 -51 -19q-6 0 -10.5 1.5t-11 5.5t-10.5 6q-14 12 -17.5 31t0.5 33l4 13l90 294l-237 186q-5 3 -12 8.5t-16.5 23.5t-3.5 38q8 21 28.5 30t35.5 9h6h295l96 294q1 6 4.5 14.5
t18 22.5t34.5 14z" />
    <glyph glyph-name="Eth" unicode="&#xd0;" 
d="M518 819q34 0 52 -57l89 -295h295h6q49 0 64 -38q6 -20 -2 -37.5t-19 -25.5l-11 -8l-237 -179l83 -294q3 -6 6 -15t1 -29.5t-19 -32.5q-13 -13 -32 -13q-12 0 -23 4.5t-17 9.5l-5 5l-237 180l-237 -180q-25 -19 -51 -19q-6 0 -10.5 1.5t-11 5.5t-10.5 6q-14 12 -17.5 31
t0.5 33l4 13l90 294l-237 186q-5 3 -12 8.5t-16.5 23.5t-3.5 38q8 21 28.5 30t35.5 9h6h295l96 294q1 6 4.5 14.5t18 22.5t34.5 14z" />
    <glyph glyph-name="Ntilde" unicode="&#xd1;" 
d="M922 767h-820q-14 0 -26 -12t-12 -26v-819q0 -14 12 -26.5t26 -12.5h820q14 0 26 12.5t12 26.5v819q0 14 -12 26t-26 12zM922 831q44 0 73 -29.5t29 -72.5v-819q0 -44 -29.5 -73.5t-72.5 -29.5h-820q-43 0 -72.5 29.5t-29.5 73.5v819q0 43 29 72.5t73 29.5h820z" />
    <glyph glyph-name="Ograve" unicode="&#xd2;" 
d="M384 705h-64v77q0 20 16 35.5t35 15.5h282q19 0 35 -15.5t16 -35.5v-77h-64v64h-256v-64zM557 321q19 0 19 -25v-141q0 -26 -19 -26h-90q-19 0 -19 19v148q0 25 19 25h90zM960 577h-896v-192q0 -29 18 -46.5t46 -17.5h192q10 58 50 93t97 35h90q57 0 97 -35t50 -93h192
q28 0 46 17.5t18 46.5v192zM966 641q24 0 41 -16.5t17 -40.5v-199q0 -53 -38 -90.5t-90 -37.5h-256v39q0 39 -22.5 64t-60.5 25h-90q-38 0 -60.5 -25t-22.5 -64v-39h-256q-52 0 -90 37.5t-38 90.5v199q0 24 17 40.5t41 16.5h908zM960 136q-22 -7 -64 -7h-192
q-10 -58 -50 -93t-97 -35h-90q-57 0 -97 35t-50 93h-192q-42 0 -64 7v-250q0 -4 4 -8.5t9 -4.5h870q5 0 9 4.5t4 8.5v250zM1024 244v-358q0 -34 -21.5 -55.5t-55.5 -21.5h-870q-34 0 -55.5 21.5t-21.5 55.5v358q51 -51 128 -51h256v-38q0 -39 22.5 -64.5t60.5 -25.5h90
q38 0 60.5 25.5t22.5 64.5v38h256q77 0 128 51z" />
    <glyph glyph-name="Oacute" unicode="&#xd3;" 
d="M363 768q-27 0 -52 -8.5t-47 -25.5t-35.5 -48t-13.5 -72q0 -56 23.5 -110.5t58 -87t66.5 -32.5q33 0 70 34t62.5 90.5t25.5 113.5q0 38 -14 67.5t-38 46t-50.5 24.5t-55.5 8zM363 832q58 0 107 -22.5t82 -71.5t33 -116q0 -70 -32 -140.5t-84 -116t-106 -45.5t-103.5 44
t-79 112t-29.5 138q0 102 61.5 160t150.5 58zM752 352q113 0 192.5 -81t79.5 -191q0 -114 -79 -193t-193 -79t-193 79t-79 193t79 193t193 79zM928 -47l-127 127l127 127l-48 47l-127 -127l-129 129l-48 -47l129 -129l-129 -129l48 -47l129 129l127 -127zM217 164
q-43 -24 -66 -41.5t-44 -49.5t-30 -79.5t-12 -121.5h271q-48 97 -48 208q0 28 4 56q-39 9 -75 28zM218 237q70 -45 145 -45h2.5h2.5q-16 -56 -16 -112q0 -158 105 -272h-451h-6q0 93 10 158.5t23 104.5t45.5 71.5t56.5 47.5t77 44z" />
    <glyph glyph-name="Ocircumflex" unicode="&#xd4;" 
d="M973 141q18 -18 21 -45t-8 -45q-19 -19 -45 -19t-45 19l-378 371l-377 -371q-19 -19 -45 -19t-45 19t-19 45t19 45l416 416q19 19 45 19t45 -19z" />
    <glyph glyph-name="Otilde" unicode="&#xd5;" 
d="M326 819v-576q0 -127 48 -194.5t132 -67.5q185 0 185 262v576h231v-563q0 -230 -111 -345.5t-312 -115.5q-403 0 -403 461v563h230z" />
    <glyph glyph-name="Odieresis" unicode="&#xd6;" 
d="M768 627h-141v-640h141v-192h-141h-230h-141v192h141v640h-141v192h141h230h141v-192z" />
    <glyph glyph-name="multiply" unicode="&#xd7;" 
d="M512 704q-158 0 -271 -113t-113 -271t113 -271t271 -113t271 113t113 271t-113 271t-271 113zM512 832q138 0 256 -69t187 -187t69 -256t-69 -256t-187 -187t-256 -69t-256 69t-187 187t-69 256t69 256t187 187t256 69zM811 -69l-684 683l91 91l683 -684z" />
    <glyph glyph-name="Oslash" unicode="&#xd8;" 
d="M922 755h-820q-14 0 -26 -12t-12 -26v-820q0 -14 12 -26t26 -12h820q14 0 26 12t12 26v820q0 14 -12 26t-26 12zM922 819q44 0 73 -29.5t29 -72.5v-820q0 -43 -29 -72.5t-73 -29.5h-820q-44 0 -73 29.5t-29 72.5v820q0 43 29 72.5t73 29.5h820zM858 493l-448 -448
l-244 236l96 58l148 -147l371 377z" />
    <glyph glyph-name="Ugrave" unicode="&#xd9;" 
d="M1024 -128v-38v-26h-1024v26v38h64v960h480v-186h410l6 -774h64zM243 -128h122v115h-122v-115zM659 -128h122v115h-122v-115zM736 557v-154h141v154h-141zM736 371v-153h141v153h-141zM736 186v-154h141v154h-141zM544 557v-154h141v154h-141zM544 371v-153h141v153h-141
zM544 186v-154h141v154h-141zM320 762v-154h141v154h-141zM320 557v-154h141v154h-141zM320 371v-153h141v153h-141zM320 186v-154h141v154h-141zM134 762v-154h141v154h-141zM134 557v-154h141v154h-141zM134 371v-153h141v153h-141zM134 186v-154h141v154h-141z" />
    <glyph glyph-name="Uacute" unicode="&#xda;" 
d="M534 776h-64v-58q0 -23 -15.5 -41t-35.5 -23q-56 -11 -90 -44q-6 -7 -31.5 -7t-45.5 19l-44 45l-45 -45l45 -44q13 -14 14.5 -36t-8.5 -41q-28 -37 -38 -90q-5 -24 -22.5 -37.5t-41.5 -13.5h-58v-64h58q23 0 41 -15.5t23 -35.5q9 -48 38 -96q14 -20 11.5 -41t-17.5 -36
l-45 -45l45 -45l44 45q20 19 45 19q19 0 32 -6q37 -28 90 -38q24 -5 37.5 -22.5t13.5 -41.5v-58h64v70q0 23 15.5 41t35.5 23q39 8 90 39q6 6 31.5 6t45.5 -19l44 -45l45 45l-45 45q-13 14 -14.5 36t8.5 41q28 37 38 89q5 24 22.5 37.5t41.5 13.5h58v64h-58q-23 0 -41 15.5
t-23 36.5q-7 38 -38 89q-14 20 -11.5 41t17.5 36l45 45l-45 45l-44 -45q-20 -19 -45 -19q-19 0 -32 6q-37 28 -90 38q-24 5 -37.5 22.5t-13.5 41.5v58zM822 693zM233 693zM572 840q13 0 39 -26v-102q47 -8 109 -45l70 71q6 6 19 6t19 -6l103 -103q5 -5 5 -16t-5 -16l-71 -70
q20 -32 45 -109h103q9 0 17 -8t8 -18v-147q0 -9 -8 -17t-17 -8h-103q-8 -48 -45 -109l71 -71q5 -4 5 -15.5t-5 -16.5l-103 -102q-6 -6 -19 -6t-19 6l-70 70q-32 -19 -109 -44v-103q0 -9 -8 -17t-18 -8h-147q-16 0 -24 16q-1 5 -2 9v103q-47 7 -108 44l-71 -70q-6 -6 -19 -6
t-19 6l-103 102q-4 5 -4 16.5t4 15.5l71 71q-19 32 -45 109h-102q-10 0 -18 8t-8 17v147q0 10 8 18t18 8h96q25 77 44 115l-70 71q-5 4 -5 15.5t5 16.5l102 102q7 6 20 6q3 0 9.5 -3t9.5 -3l70 -77q42 34 109 45v102q0 10 8 18t18 8h140zM502 424q-38 0 -67 -29t-29 -67
t29 -67t67 -29t67 29t29 67t-29 67t-67 29zM502 488q67 0 113.5 -46.5t46.5 -113.5t-46.5 -113.5t-113.5 -46.5t-113.5 46.5t-46.5 113.5t46.5 113.5t113.5 46.5z" />
    <glyph glyph-name="Ucircumflex" unicode="&#xdb;" 
d="M960 760q29 0 46.5 -17.5t17.5 -46.5v-576q0 -28 -19.5 -46t-44.5 -18h-288v-128h96q14 0 23 -9t9 -23t-9 -23t-23 -9h-512q-14 0 -23 9t-9 23t9 23t23 9h96v128h-288q-28 0 -46 19.5t-18 44.5v576q0 29 17.5 46.5t46.5 17.5h896zM608 -72v128h-192v-128h192zM960 120
v576h-896v-576h896z" />
    <glyph glyph-name="Udieresis" unicode="&#xdc;" 
d="M710 832q39 0 64.5 -25.5t25.5 -64.5v-844q0 -39 -25.5 -64.5t-64.5 -25.5h-396q-39 0 -64.5 25.5t-25.5 64.5v844q0 39 25.5 64.5t64.5 25.5h396zM314 768q-10 0 -18 -8t-8 -18v-614h448v614q0 10 -8 18t-18 8h-396zM710 -128q10 0 18 8t8 18v166h-448v-166q0 -10 8 -18
t18 -8h396zM544 0q14 0 23 -9t9 -23t-9 -23t-23 -9h-64q-14 0 -23 9t-9 23t9 23t23 9h64z" />
    <glyph glyph-name="Yacute" unicode="&#xdd;" 
d="M819 627q92 -34 148.5 -113t56.5 -175q0 -114 -72 -197.5t-184 -103.5q-14 -4 -26 4t-12 22q-5 14 3 26t22 12q90 10 147.5 77.5t57.5 159.5q0 77 -48 142t-125 89l-13 6l-6 13q-34 82 -105 130.5t-157.5 48.5t-157.5 -48.5t-105 -130.5l-6 -13l-13 -6
q-72 -29 -116 -91.5t-44 -139.5q0 -94 61.5 -163.5t149.5 -79.5q15 0 23.5 -9t8.5 -23t-8.5 -23t-23.5 -9q-116 15 -195.5 102t-79.5 205q0 90 51.5 166.5t134.5 115.5q43 97 129 154t191 57q99 0 184.5 -56.5t128.5 -148.5zM557 32l173 -173q9 -9 9 -22t-9 -23
q-7 -6 -26 -6t-26 13l-166 166l-166 -173q-7 -6 -26 -6t-26 19q-9 10 -9 22.5t9 22.5l167 166l-167 167q-9 9 -9 24.5t9.5 20t25.5 4.5t26 -4l166 -173l166 166q10 10 23 10t22.5 -9.5t9.5 -22.5t-10 -23z" />
    <glyph glyph-name="Thorn" unicode="&#xde;" 
d="M992 201q14 0 22.5 -11t3.5 -21v-243q0 -48 -34 -82t-82 -34h-787q-48 0 -81.5 34t-33.5 82v787q0 48 33.5 81.5t81.5 33.5h250q10 0 17.5 -9t7.5 -23t-8.5 -23t-23.5 -9h-243q-19 0 -35 -16t-16 -35v-794q0 -20 16 -34.5t35 -10.5h794q20 0 35.5 14.5t15.5 37.5v243
q0 14 9 23t23 9zM966 828q24 0 41 -17t17 -41v-396q0 -25 -18 -41.5t-46 -16.5h-390q-25 0 -41.5 18t-16.5 46v390q0 24 17 41t41 17h396zM960 380v384h-384v-384h384z" />
    <glyph glyph-name="germandbls" unicode="&#xdf;" 
d="M582 320l320 -326q15 -15 15 -35.5t-15 -35.5q-12 -13 -31.5 -13t-32.5 13l-326 327l-333 -327q-13 -13 -32 -13t-32 13q-14 15 -14 35.5t14 35.5l327 326l-327 326q-14 15 -14 35.5t14.5 35t35 14.5t35.5 -14l326 -327l326 327q15 14 35.5 14t35 -14.5t14.5 -35
t-14 -35.5z" />
    <glyph glyph-name="agrave" unicode="&#xe0;" 
d="M512 520q113 0 192.5 -81t79.5 -191q0 -114 -79 -193t-193 -79t-193 79t-79 193t79 193t193 79zM688 121l-127 127l127 127l-48 47l-127 -127l-129 129l-48 -47l129 -129l-129 -129l48 -47l129 129l127 -127zM916 693h-808q-24 0 -40 -16.5t-16 -39.5v-714
q0 -23 16 -39.5t40 -16.5h808q23 0 39.5 16.5t16.5 39.5v714q0 23 -16.5 39.5t-39.5 16.5zM916 745q45 0 76.5 -31.5t31.5 -76.5v-714q0 -44 -31.5 -75.5t-76.5 -31.5h-808q-45 0 -76.5 31.5t-31.5 75.5v714q0 45 31.5 76.5t76.5 31.5h808zM278 640q0 -15 -11 -25.5
t-26 -10.5t-25.5 10.5t-10.5 25.5v150q0 15 10.5 25.5t25.5 10.5t26 -10.5t11 -25.5v-150zM555 635q0 -15 -11 -25.5t-26 -10.5t-25.5 10.5t-10.5 25.5v149q0 16 10.5 26.5t25.5 10.5t26 -10.5t11 -26.5v-149zM834 635q0 -15 -11 -25.5t-26 -10.5t-25.5 10.5t-10.5 25.5v149
q0 16 10.5 26.5t25.5 10.5t26 -11t11 -26v-149z" />
    <glyph glyph-name="aacute" unicode="&#xe1;" 
d="M608 435h192v-192h-192v-448h-192v448h-192v192h192v109q0 21 1.5 40t7 48t15 53t28.5 50t44.5 43.5t65 29t88.5 11.5h134v-192h-134q-25 0 -41.5 -15t-16.5 -42v-135z" />
    <glyph glyph-name="acircumflex" unicode="&#xe2;" 
d="M1019 521q10 -88 10 -176v-83q0 -88 -10 -177q-1 -8 -3.5 -21.5t-13 -43t-24.5 -43.5q-8 -9 -16.5 -16.5t-17.5 -12t-16 -7.5t-16.5 -5t-13.5 -3t-13 -2t-10 -1q-63 -5 -152.5 -7.5t-147.5 -3.5h-58q-266 3 -348 11q-1 0 -20.5 3t-31 6t-29.5 12.5t-32 25.5
q-14 14 -24 41.5t-13 46.5l-4 20q-10 89 -10 177v83q0 39 2.5 83t5.5 69l2 24q1 9 3.5 22.5t13 42.5t24.5 44q8 9 16.5 16t17.5 11.5l16 8t16.5 5.5t13.5 2.5t13 1.5t10 1q63 5 152.5 8t147.5 3h58q215 0 358 -11q1 0 10 -1t13 -1.5t13.5 -2.5t16.5 -5.5l16 -8t17.5 -11.5
t16.5 -16q14 -15 24 -42t13 -47zM389 111l320 192l-320 192v-384z" />
    <glyph glyph-name="atilde" unicode="&#xe3;" 
d="M934 243q47 -67 47 -149q0 -106 -75 -181t-181 -75q-82 0 -149 47q-10 0 -32 -2t-32 -2q-176 0 -301.5 125t-125.5 301q0 11 2.5 32t2.5 32q-47 67 -47 150q0 106 75 181t181 75q82 0 149 -47q10 0 32 2t32 2q176 0 301.5 -125.5t125.5 -301.5q0 -38 -5 -64zM546 9
q97 7 159.5 78t28.5 152q-11 26 -30 46t-37.5 32.5t-48 23t-50 16t-56.5 14t-55 13.5q-54 14 -61.5 45.5t24 57t75.5 25.5q39 0 74.5 -24.5t60.5 -48t40 -21.5q22 2 37 21t10.5 48t-34.5 55q-89 76 -231 64q-66 -7 -115 -51t-55 -120q-3 -40 15 -72t51.5 -53t70 -34
t76.5 -20q28 -4 53 -11.5t46.5 -21.5t23.5 -33t-16 -45q-23 -29 -62 -33.5t-67 4.5t-46 21q-8 5 -26 25.5t-37 34.5t-40 12q-24 -2 -38 -22t-8.5 -50t33.5 -56q46 -42 97 -60t138 -12z" />
    <glyph glyph-name="adieresis" unicode="&#xe4;" 
d="M1024 627q-37 -64 -109 -115v-26q0 -83 -24.5 -167t-75 -161t-120 -136.5t-167 -95t-208.5 -35.5q-161 0 -320 96h51q154 0 263 90q-70 0 -124.5 41.5t-74.5 105.5q13 -6 39 -6q38 0 57 6q-72 14 -119 71.5t-47 133.5q64 -26 96 -26q-44 29 -70 75t-26 98q0 67 25 109
q77 -97 192.5 -155.5t243.5 -62.5q-7 15 -7 45q0 86 61.5 148.5t143.5 62.5q90 0 154 -64q95 24 134 51q-19 -74 -90 -115q79 11 122 32z" />
    <glyph glyph-name="aring" unicode="&#xe5;" 
d="M77 461h192v-576h-192v576zM173 736q48 0 78.5 -26.5t30.5 -69.5q0 -44 -30.5 -73t-78.5 -29q-50 0 -79.5 30.5t-29.5 71.5q0 39 31 67.5t78 28.5zM742 467q96 0 158 -65.5t66 -190.5v-320h-192v307q0 128 -96 128q-40 0 -65 -20.5t-37 -49.5q-6 -19 -6 -51v-320h-199
v576h199v-90q13 19 24.5 32t32 29.5t50 25.5t65.5 9z" />
    <glyph glyph-name="ae" unicode="&#xe6;" 
d="M505.5 768q-15.5 0 -32 -2t-41 -11t-43.5 -24t-33.5 -43.5t-16.5 -66.5q0 -57 22 -120t58.5 -106t73.5 -43t77.5 41.5t67.5 105t27 122.5q0 38 -13 66.5t-31.5 43.5t-42.5 24t-40.5 11t-32 2zM505 832q100 0 165.5 -56.5t65.5 -154.5q0 -71 -32 -148t-88 -131t-117 -54
t-112.5 54.5t-78.5 130t-27 148.5q0 98 63 154.5t161 56.5zM505 -128q20 -38 58 -58h-550q0 69 5.5 121.5t14 89.5t26 65.5t34.5 46t46 36t54 31.5t65.5 34.5t74.5 43.5q76 -77 160 -77q-9 -13 -26 -64q-81 10 -147 57q-32 -19 -83 -44q-4 -2 -10 -6q-26 -14 -38 -21
t-31 -20t-27 -22t-20 -24.5t-17 -32t-11.5 -40t-9 -52t-3.5 -64.5h435zM768 288q100 0 171.5 -70t71.5 -166.5t-71.5 -167t-171.5 -70.5q-97 0 -167 68.5t-70 168.5q0 97 68.5 167t168.5 70zM621 26l102 -103l198 199l-38 38l-160 -154l-64 58z" />
    <glyph glyph-name="ccedilla" unicode="&#xe7;" horiz-adv-x="1048" 
d="M110 224v192h813v-192h-813z" />
    <glyph glyph-name="egrave" unicode="&#xe8;" 
d="M314 416v64h403v-64h-403zM314 224v64h403v-64h-403zM314 32v64h403v-64h-403zM819 704q34 0 55.5 -21.5t21.5 -55.5v-742q0 -34 -21.5 -55.5t-55.5 -21.5h-614q-34 0 -55.5 21.5t-21.5 55.5v742q0 34 21.5 55.5t55.5 21.5h83v32q0 38 29 67t67 29h256q38 0 67 -29
t29 -67v-32h83zM352 736v-32h320v32q0 14 -9 23t-23 9h-256q-14 0 -23 -9t-9 -23zM832 -115v742q0 5 -4 9t-9 4h-614q-5 0 -9 -4t-4 -9v-742q0 -5 4 -9t9 -4h614q5 0 9 4t4 9z" />
    <glyph glyph-name="eacute" unicode="&#xe9;" 
d="M724 408h64v114q0 82 -36.5 152t-101 111.5t-140.5 41.5q-111 0 -192 -85l46 -44q62 65 146 65q87 0 150.5 -70t63.5 -171v-114zM512 -17v222v-222zM512 -49q-13 0 -22.5 9.5t-9.5 22.5v222q0 13 9.5 22.5t22.5 9.5t22.5 -9.5t9.5 -22.5v-222q0 -13 -9.5 -22.5
t-22.5 -9.5zM914 -98v453q0 39 -28 66t-68 27h-612q-40 0 -68 -27t-28 -66v-453q0 -39 28 -66t68 -27h612q40 0 68 27t28 66zM850 -98q0 -11 -9 -20t-23 -9h-612q-14 0 -23 9t-9 20v453q0 12 9 20.5t23 8.5h612q14 0 23 -8.5t9 -20.5v-453z" />
    <glyph glyph-name="ecircumflex" unicode="&#xea;" 
d="M864 640h-704q-14 0 -23 -9t-9 -23t9 -23t23 -9h704q14 0 23 9t9 23t-9 23t-23 9zM864 704q38 0 67 -29t29 -67t-29 -67t-67 -29h-704q-38 0 -67 29t-29 67t29 67t67 29h704zM800 518h64v-582q0 -53 -37.5 -90.5t-90.5 -37.5h-448q-53 0 -90.5 37.5t-37.5 90.5v582h64
v-582q0 -29 17.5 -46.5t46.5 -17.5h448q29 0 46.5 17.5t17.5 46.5v582zM384 698h-64v70q0 28 19.5 46t44.5 18h256q29 0 46.5 -17.5t17.5 -46.5v-70h-64v70h-256v-70zM678 256h-332q-10 0 -18 8t-8 18v12q0 10 8 18t18 8h332q10 0 18 -8t8 -18v-12q0 -10 -8 -18t-18 -8z
M678 64h-332q-10 0 -18 8t-8 18v12q0 10 8 18t18 8h332q10 0 18 -8t8 -18v-12q0 -10 -8 -18t-18 -8z" />
    <glyph glyph-name="edieresis" unicode="&#xeb;" 
d="M614 740q12 -16 21.5 -37.5t18 -54t7 -78t-13.5 -97.5h206q24 0 58 -16t62.5 -48t28.5 -67q0 -63 -19 -91q7 -20 8 -42.5t-6.5 -48.5t-25.5 -45q4 -100 -51 -140q-1 -57 -40 -102q-28 -33 -62 -33h-450q-33 0 -77.5 25t-44.5 57v397q0 14 12 21q64 36 104 100t79 176v131
q0 7 3 12q24 41 74 41q29 0 57.5 -16t50.5 -44zM477 739v0v-127q0 -5 -1 -8q-40 -115 -83.5 -186t-110.5 -113v-380q4 -10 30.5 -23t43.5 -13h450q11 0 25 16t22 39t6 41q-2 16 12 24q45 25 38 114q-1 12 9 21q16 13 21 34.5t2.5 38.5t-9.5 27q-7 11 -2 23q4 9 13 13
q10 16 10 62q0 28 -38 55.5t-63 27.5h-236q-12 0 -19.5 9.5t-3.5 21.5q19 67 18 123.5t-11 83.5t-25 48q-31 40 -69 40q-18 0 -29 -12zM282 318v-393q0 -35 -25 -60t-60 -25h-89q-36 0 -61 25t-25 60v393q0 35 25 60t61 25h89q35 0 60 -25t25 -60zM108 -111h89q15 0 26 10.5
t11 25.5v393q0 15 -11 26t-26 11h-89q-16 0 -26.5 -11t-10.5 -26v-393q0 -15 10.5 -25.5t26.5 -10.5z" />
    <glyph glyph-name="igrave" unicode="&#xec;" 
d="M410 -100q-12 16 -21.5 37.5t-18 53.5t-7 78t13.5 98h-206q-24 0 -58 16t-62.5 48t-28.5 67q0 63 19 91q-7 20 -8 42.5t6.5 48.5t25.5 45q-4 100 51 140q1 57 40 102q28 33 62 33h450q33 0 77.5 -25t44.5 -57v-397q0 -14 -12 -21q-64 -36 -104 -100t-79 -176v-131
q0 -7 -3 -12q-24 -41 -74 -41q-29 0 -57.5 16t-50.5 44zM547 -99v0v127q0 5 1 8q40 115 83.5 186t110.5 113v380q-4 10 -30.5 23t-43.5 13h-450q-11 0 -25 -16t-22 -39t-6 -41q3 -16 -12 -24q-45 -25 -38 -114q1 -12 -9 -20q-16 -14 -21 -35.5t-2.5 -38.5t9.5 -27
q7 -11 2 -23q-4 -9 -13 -13q-10 -16 -10 -62q0 -28 38 -55.5t63 -27.5h236q12 0 19.5 -9.5t3.5 -20.5q-19 -68 -18 -124.5t11 -83.5t25 -48q31 -40 69 -40q18 0 29 12zM742 322v393q0 35 25 60t60 25h89q36 0 61 -25t25 -60v-393q0 -35 -25 -60t-61 -25h-89q-35 0 -60 25
t-25 60zM916 751h-89q-15 0 -26 -10.5t-11 -25.5v-393q0 -15 11 -26t26 -11h89q16 0 26.5 11t10.5 26v393q0 15 -10.5 25.5t-26.5 10.5z" />
    <glyph glyph-name="iacute" unicode="&#xed;" 
d="M921 768h-819q-14 0 -26 -12t-12 -27v-819q0 -14 12 -26t26 -12h819q15 0 27 12t12 26v819q0 15 -12 27t-27 12zM921 832q44 0 73.5 -29.5t29.5 -73.5v-819q0 -43 -29.5 -72.5t-72.5 -29.5h-820q-43 0 -72.5 29.5t-29.5 72.5v819q0 44 29.5 73.5t72.5 29.5h819zM301 29
l-79 78l501 501l78 -78zM723 32l-501 501l79 78l500 -501z" />
    <glyph glyph-name="icircumflex" unicode="&#xee;" 
d="M846 355h-704v-480h704v480zM910 419v-608h-832v608h832zM663 147h-338q-10 0 -16.5 -6.5t-6.5 -16.5v-18q0 -10 6.5 -16.5t16.5 -6.5h338q10 0 16.5 6.5t6.5 16.5v18q0 10 -6.5 16.5t-16.5 6.5zM663 211q36 0 61.5 -25.5t25.5 -61.5v-18q0 -36 -25.5 -61.5t-61.5 -25.5
h-338q-36 0 -61.5 25.5t-25.5 61.5v18q0 36 25.5 61.5t61.5 25.5h338zM155 758l-29 -125l730 -168l29 124zM107 835l855 -198l-58 -249l-855 198z" />
    <glyph glyph-name="idieresis" unicode="&#xef;" 
d="M168 -136q-19 0 -32 13q-15 13 -16 33t12 35l353 389l-377 359q-15 14 -15.5 33.5t13.5 34t33.5 15t34.5 -13.5l445 -423l-416 -459q-14 -16 -35 -16zM519 -136q-18 0 -32 13q-15 13 -16 33t12 35l353 389l-377 359q-15 14 -15.5 33.5t13.5 34t34 15t34 -13.5l445 -423
l-415 -459q-15 -16 -36 -16z" />
    <glyph glyph-name="eth" unicode="&#xf0;" 
d="M704 262l64 64v-390q0 -53 -37.5 -90.5t-90.5 -37.5h-512q-53 0 -90.5 37.5t-37.5 90.5v512q0 53 37.5 90.5t90.5 37.5h389l-64 -64h-325q-26 0 -45 -19t-19 -45v-512q0 -26 19 -45t45 -19h512q26 0 45 19t19 45v326zM239 211q1 8 8 10t12 -3l149 -149q6 -5 3.5 -12
t-9.5 -8l-181 -32q-6 -1 -10.5 3.5t-3.5 10.5zM697 575l-319 -318l70 -70l318 318zM697 657q8 0 13 -5l133 -133q6 -6 6 -14t-6 -13l-382 -382q-5 -5 -13 -5t-14 5l-133 133q-6 6 -6 14t6 13l382 382q6 5 14 5zM874 749l-55 -54l68 -68l54 55zM874 832q8 -1 13 -6l131 -131
q6 -6 6 -13.5t-6 -13.5l-118 -118q-5 -6 -13 -6t-14 6l-131 131q-6 6 -6 14t6 13l118 118q6 6 14 6z" />
    <glyph glyph-name="ograve" unicode="&#xf2;" 
d="M128 -192v64h768v-64h-768zM512 768q-106 0 -181 -75t-75 -181q0 -58 26 -109q60 -144 230 -365q170 221 230 365q26 51 26 109q0 106 -75 181t-181 75zM512 832q134 0 227 -93t93 -227q0 -70 -32 -134q-22 -52 -59.5 -117t-75.5 -120t-73.5 -102.5t-57.5 -75.5l-22 -27
q-9 10 -23.5 28.5t-55 72.5t-75.5 105.5t-73.5 117.5t-60.5 118q-32 64 -32 134q0 134 93 227t227 93z" />
    <glyph glyph-name="oacute" unicode="&#xf3;" 
d="M896 704h-768q-29 0 -46.5 -17.5t-17.5 -46.5v-640q0 -29 17.5 -46.5t46.5 -17.5h768q29 0 46.5 17.5t17.5 46.5v640q0 29 -17.5 46.5t-46.5 17.5zM896 768q53 0 90.5 -37.5t37.5 -90.5v-640q0 -53 -37.5 -90.5t-90.5 -37.5h-768q-53 0 -90.5 37.5t-37.5 90.5v640
q0 53 37.5 90.5t90.5 37.5h768zM832 403q14 0 23 -8.5t9 -23.5v-102q0 -15 -9 -23.5t-23 -8.5h-320v-147q0 -20 -18.5 -30t-32.5 4l-288 230q-15 10 -15 26t15 26l288 230q19 14 38 4t19 -30v-147h314z" />
    <glyph glyph-name="ocircumflex" unicode="&#xf4;" 
d="M960 768h-192v-896h192v896zM960 832q29 0 46.5 -17.5t17.5 -46.5v-896q0 -29 -17.5 -46.5t-46.5 -17.5h-192q-29 0 -46.5 17.5t-17.5 46.5v896q0 29 17.5 46.5t46.5 17.5h192zM595 346q15 -10 15 -26t-15 -26l-294 -230q-15 -14 -33 -4t-18 30v147h-218q-14 0 -23 8.5
t-9 23.5v102q0 15 9 23.5t23 8.5h218v147q0 20 19 30t38 -4z" />
    <glyph glyph-name="otilde" unicode="&#xf5;" 
d="M978 399q32 -34 32 -81t-31 -80l-336 -332q-11 -11 -27 -11t-28 12q-11 11 -10.5 27t11.5 27l334 329h-875q-16 0 -27.5 11.5t-11.5 27.5t11.5 27t27.5 11h853l-312 308q-11 11 -11.5 27t11 27t27.5 11.5t27 -11.5z" />
    <glyph glyph-name="odieresis" unicode="&#xf6;" 
d="M646 542q104 0 189.5 -48t134 -130.5t48.5 -180.5t-48.5 -180t-134 -130t-189.5 -48h-358q-14 0 -26 12t-12 26.5t12 26.5t26 12h358q130 0 215.5 80.5t85.5 200.5q0 119 -87.5 200.5t-213.5 81.5h-537l211 -231q13 -10 12 -25t-12 -26q-13 -13 -25.5 -13t-25.5 13
l-243 256q-20 24 -18.5 58t24.5 57l243 256q10 10 26 10t25.5 -9.5t9.5 -25.5t-10 -26l-204 -217h524z" />
    <glyph glyph-name="divide" unicode="&#xf7;" 
d="M973 768q-11 0 -22.5 -5t-16.5 -14l-582 -749l-269 230q-13 13 -32 13q-11 0 -22.5 -5t-15.5 -14q-15 -14 -13.5 -37.5t19.5 -32.5l307 -263q10 -19 32 -19h7q19 0 38 19l615 787q9 20 5 41.5t-18 35.5q-4 2 -9 5l-7.5 4.5t-7 2.5t-8.5 1z" />
    <glyph glyph-name="oslash" unicode="&#xf8;" 
d="M979 589q20 -10 32.5 -27.5t12.5 -36.5v-647q0 -28 -21 -49t-49 -21h-884q-28 0 -49 21t-21 49v647q0 19 14 36.5t37 27.5q7 6 19 6h890q3 0 9.5 -3t9.5 -3zM954 525h-884v-7l410 -313v0q13 -13 32 -13t38 19v0l404 307v7zM954 -128l6 576l-371 -288q-43 -32 -77 -32
t-77 32l-371 288v-570q0 -4 1 -5t5 -1h884z" />
    <glyph glyph-name="ugrave" unicode="&#xf9;" 
d="M986 474q21 -16 29.5 -28t8.5 -30v-160v-256v-122q0 -28 -21 -49t-49 -21h-884q-28 0 -49 19.5t-21 44.5v122v256v166q0 32 38 58l410 256q29 19 64 19t64 -19zM486 678l-409 -249q0 -3 -1.5 -4.5t-3.5 -1.5l-2 -1l404 -288v0q25 -12 38 -12q5 0 17 2q20 4 34 4v0
l397 282l-6 6l-410 256q-13 13 -32 13t-26 -7zM960 -6v256v96l-371 -256q-14 -15 -36 -23.5t-41 -8.5q-34 0 -77 32l-371 256v-90v-256v-122q0 -6 6 -12h884q2 0 4 1.5t2 2.5v2v122z" />
    <glyph glyph-name="uacute" unicode="&#xfa;" 
d="M512 832q138 0 256 -69t187 -187t69 -256t-69 -256t-187 -187t-256 -69t-256 69t-187 187t-69 256t69 256t187 187t256 69zM512 -115q87 0 167.5 35t139 93.5t93.5 139t35 167.5t-35 167.5t-93.5 139t-139 93.5t-167.5 35t-167.5 -35t-139 -93.5t-93.5 -139t-35 -167.5
t35 -167.5t93.5 -139t139 -93.5t167.5 -35zM416 70v301h192v-301q0 -38 -29 -67t-67 -29t-67 29t-29 67zM416 569.5q0 39.5 28 68t68 28.5t68 -28.5t28 -68t-28 -67.5t-68 -28t-68 28t-28 67.5z" />
    <glyph glyph-name="ucircumflex" unicode="&#xfb;" 
d="M64 282v83h896v-83h-896zM550 -128h-83v896h83v-896z" />
    <glyph glyph-name="udieresis" unicode="&#xfc;" 
d="M915 480q13 0 22.5 -9.5t9.5 -22.5v-547q0 -39 -27 -66t-66 -27h-710q-39 0 -66 27t-27 66v774q0 39 27 66t66 27h483q13 0 22.5 -9.5t9.5 -22.5t-9.5 -22.5t-22.5 -9.5h-483q-12 0 -20.5 -8.5t-8.5 -20.5v-774q0 -12 8.5 -20.5t20.5 -8.5h710q12 0 20.5 8.5t8.5 20.5
v547q0 13 9.5 22.5t22.5 9.5zM510 410q13 0 22.5 -9.5t9.5 -22.5t-9.5 -22.5t-22.5 -9.5h-256q-13 0 -22.5 9.5t-9.5 22.5t9.5 22.5t22.5 9.5h256zM222 170q0 13 9 22.5t23 9.5h384q13 0 22.5 -9.5t9.5 -22.5t-9.5 -22.5t-22.5 -9.5h-384q-13 0 -22.5 9.5t-9.5 22.5z
M1001.5 822.5q9.5 -9.5 9.5 -22.5t-9 -23l-342 -341q-9 -10 -22.5 -10t-23 9.5t-9.5 23t10 22.5l341 342q10 9 23 9t22.5 -9.5z" />
    <glyph glyph-name="yacute" unicode="&#xfd;" 
d="M512 832q138 0 256 -69t187 -187t69 -256t-69 -256t-187 -187t-256 -69t-256 69t-187 187t-69 256t69 256t187 187t256 69zM512 -128q187 0 317.5 130.5t130.5 317.5t-130.5 317.5t-317.5 130.5t-317.5 -130.5t-130.5 -317.5t130.5 -317.5t317.5 -130.5zM416 570
l333 -231q14 -9 14 -28.5t-14 -28.5l-333 -218q-6 -6 -19 -6q-15 0 -27 12t-12 26v442q0 18 11.5 28t27.5 10q13 0 19 -6zM422 154l256 166l-256 166v-332z" />
    <glyph glyph-name="thorn" unicode="&#xfe;" 
d="M845 640q33 0 58 -25t25 -58v-666q0 -33 -25 -58t-58 -25h-474q-33 0 -58 25t-25 58v109h-109q-33 0 -58 25t-25 58v666q0 33 25 58t58 25h474q33 0 58 -25t25 -58v-109h109zM179 64h109v493q0 33 25 58t58 25h301v109q0 19 -19 19h-474q-19 0 -19 -19v-666q0 -19 19 -19
zM864 -109v666q0 19 -19 19h-474q-19 0 -19 -19v-666q0 -19 19 -19h474q19 0 19 19z" />
    <glyph glyph-name="ydieresis" unicode="&#xff;" 
d="M451 -14l-193 179l43 47l146 -135l274 297l47 -43zM954 576q29 0 49.5 -20.5t20.5 -49.5v-628q0 -29 -20.5 -49.5t-49.5 -20.5h-884q-29 0 -49.5 20.5t-20.5 49.5v628q0 29 20.5 49.5t49.5 20.5h250v80q0 73 51.5 124.5t124.5 51.5h32q73 0 124.5 -51.5t51.5 -124.5v-80
h250zM384 656v-80h256v80q0 46 -33 79t-79 33h-32q-46 0 -79 -33t-33 -79zM960 -122v628q0 6 -6 6h-250h-384h-250q-6 0 -6 -6v-628q0 -6 6 -6h884q6 0 6 6z" />
  </font>
</defs>
</svg>
